Pivovar163.ru

Пивовар
0 просмотров
Рейтинг статьи
1 звезда2 звезды3 звезды4 звезды5 звезд
Загрузка...

Коктейль Мудрый РимлянинCocktail Sage Romance

Коктейль Мудрый Римлянин Cocktail Sage Romance

Киви — 50 гр
Эстрагон — 1 веточка
Сироп сахарный — 15 мл
Сок лайма — 20 мл
Сок яблочный — 20 мл
Спрайт — долить доверху

Рецептура:

  • Охладить «хайбол»;
  • В шейкер положите половинку киви и разомните ее мадлером;
  • Следом положите нижнюю часть веточки эстрагона (верхняя пойдет на украшение);
  • Выжмите сок лайма, добавьте сахарного сиропа и яблочного сока;
  • Положите кусковой лед в шейкер чуть меньше половины, закройте его и хорошенько взбейте;
  • Перелить коктейль в бокал вместе со льдом из шейкера;
  • Долейте спрайт доверху и перемешайте напиток с помощью барной ложки или свизл-стика.

Инвентарь для приготовления:

Джиггер Хайбол Сквизер Свизл стик Мадлер (Пест) Шейкер бостонский

История коктейля Мудрый Римлянин:

История безалкогольного коктейля «Сейдж Романс» умалчивает хотя бы приблизительную дату своего создания. Так же, как и самого создателя. И, скорее всего, мы уже никогда этого не узнаем. Но можем предположить где это произошло.

Догадки и только

Судя по тому, что забугорный интернет не знает такого коктейля (он максимум упоминается на сайте ереванского ресторана), то мы можем предположить, что коктейль был создан в России.

Коктейльная культура только-только начинает набирать обороты в России, но в Москве это дело протекает гораздо быстрее, и велика вероятность, что «Сейдж Романс» был придуман именно здесь. В интернете коктейль появился не так давно, приблизительно в 2010 г. на Inshaker, но автор не подписался. Из всего вышесказанного делаем выводы:

  • Коктейль был придуман примерно в 2010 году
  • Его родина — Россия, скорее всего Москва

Мудрый римлянин

У этого безалкогольного коктейля еще и очень интересное название — «Мудрый римлянин». Можно подумать, что коктейль придуман в Риме, но мы прочесали итальянский интернет и ничего не нашли. Так коктейль может называться из-за эстрагона и киви. Так как в этих ингредиентах содержатся огромное количество полезных микроэлементов. Да и вообще весь коктейль — это витаминная бомба. Здесь большое количество витамина С, А, В1, B2 и многих других. А в Италии, в особенности в жарком Риме, популярны такие безалкогольные полезные коктейли.

Вот, возможно, и у нас в каком нибудь знатном итальянском ресторане был придуман специально для римлянина этот превосходный освежающий коктейль «Сейдж романс». Очень советуем его попробовать.

Если у вас есть рецепт своего коктейля, обязательно присылайте его нам. Мы разместим его в нашей базе, и о нем узнают другие бармены со всего русскоязычного пространства.

Орвилл / The Orville (Сезон 01, серии 01-02 из 13) (Брэннон Брага, Джон Кассар, Джеймс Л. Конуэй) [2017, Фантастика, драма, комедия, WEB-DL] [1080p] [MVO] (Jaskier) + [Orig]

Год выпуска : 2017
Страна : США, 20th Century Fox Television, Fuzzy Door Productions, Twentieth Century Fox Television
Жанр : Фантастика, драма, комедия
Продолжительность :

00:45:00
Перевод : Профессиональный (многоголосый закадровый) | Jaskier

Режиссёр : Брэннон Брага, Джон Кассар, Джеймс Л. Конуэй

В ролях: Сет МакФарлейн, Скотт Граймз, Пенни Джонсон, Питер Макон, Эдрианн Палики, Холстон Сейдж, Ларри Джо Кэмпбелл, Норм МакДональд

Описание : 25 столетие – это время когда, человечеству перестало хватать планеты Земля, как источника еды и ресурсов, необходимых для жизни. К тому же все уголки родной планеты уже давно изучены и хочется чего-то большего – новых открытий, иных рас, необычных изобретений, которые можно будет у них выменять на свои какие-то технические достижения. Поставив за цель, ведущие умы человечества достигают ее. Им удается выйти на связь с другими разумными существами, что обитают во вселенной. Следующий шаг – это построить огромный космический корабль, который поможет покорить космические просторы и изучить все воочию. Проект получает название Орвилл и отдается под руководство молодого капитана Мерсера, у которого сейчас в жизни не самый простой период. Он разлучается с супругой, но не смотря на это не упивается горем, а старается наоборот переключиться на что-то иное и космическое путешествие подходит для этого как нельзя лучше.

Читать еще:  Коктейли с виски в домашних условиях

Качество : WEB-DL 1080p
Формат : MKV
Видео : 1916×1076 (16:9) | X264 |

5148 kbps | 23.976 fps
Аудио 1 : AC3, 48,0 КГц, 6 ch, 384 kbps — [RUS]
Аудио 2 : AC3, 48,0 КГц, 6 ch, 384 kbps — [ENG]
Субтитры : Английские

Добавлена 2-я серия!

Общее
Уникальный идентификатор : 195738814907957727910703926898018328017 (0x9341ECAB71602DC181E4504953119DD1)
Полное имя : D:JaskierThe Orville Season 1 (WEBRip l 1080p l Jaskier)The.Orville.S01E01.1080p.WEB-DL.Jaskier.Rus.Eng.mkv
Формат : Matroska
Версия формата : Version 4 / Version 2
Размер файла : 1,90 Гбайт
Продолжительность : 46 м. 0 с.
Общий поток : 5918 Кбит/сек
Название фильма : The.Orville.S01E01.1080p.WEB-DL.DD5.1.H264-RARBG
Дата кодирования : UTC 2017-09-13 10:50:49
Программа кодирования : mkvmerge v15.0.0 (‘Duel with the Devil’) 64-bit
Библиотека кодирования : libebml v1.3.5 + libmatroska v1.4.5
Обложка : Yes
Attachments : cover_land.jpg / small_cover.jpg / small_cover_land.jpg / cover.jpg

Видео
Идентификатор : 1
Формат : AVC
Формат/Информация : Advanced Video Codec
Профиль формата : High@L4
Параметр CABAC формата : Да
Параметр RefFrames формата : 4 кадра
Идентификатор кодека : V_MPEG4/ISO/AVC
Продолжительность : 45 м. 59 с.
Битрейт : 5148 Кбит/сек
Ширина : 1916 пикселей
Высота : 1076 пикселей
Соотношение сторон : 16:9
Режим частоты кадров : Постоянный
Частота кадров : 23,976 (23976/1000) кадра/сек
Цветовое пространство : YUV
Субдискретизация насыщенности : 4:2:0
Битовая глубина : 8 бит
Тип развёртки : Прогрессивная
Бит/(Пиксели*Кадры) : 0.104
Размер потока : 1,65 Гбайт (87%)
Заголовок : The.Orville.S01E01.1080p.WEB-DL.DD5.1.H264-RARBG
Язык : English
Default : Да
Forced : Нет
Цветовой диапазон : Limited
Основные цвета : BT.709
Характеристики трансфера : BT.709
Коэффициенты матрицы : BT.709

Аудио #1
Идентификатор : 2
Формат : AC-3
Формат/Информация : Audio Coding 3
Параметр Endianness формата : Big
Идентификатор кодека : A_AC3
Продолжительность : 45 м. 59 с.
Вид битрейта : Постоянный
Битрейт : 384 Кбит/сек
Каналы : 6 каналов
Расположение каналов : Front: L C R, Side: L R, LFE
Частота : 48,0 КГц
Частота кадров : 31,250 кадров/сек (1536 SPF)
Битовая глубина : 16 бит
Метод сжатия : С потерями
Задержка видео : -42 мс.
Размер потока : 126 Мбайт (6%)
Заголовок : Jaskier
Язык : Russian
ServiceKind/String : Complete Main
Default : Да
Forced : Нет

Аудио #2
Идентификатор : 3
Формат : AC-3
Формат/Информация : Audio Coding 3
Параметр Endianness формата : Big
Идентификатор кодека : A_AC3
Продолжительность : 46 м. 0 с.
Вид битрейта : Постоянный
Битрейт : 384 Кбит/сек
Каналы : 6 каналов
Расположение каналов : Front: L C R, Side: L R, LFE
Частота : 48,0 КГц
Частота кадров : 31,250 кадров/сек (1536 SPF)
Битовая глубина : 16 бит
Метод сжатия : С потерями
Задержка видео : -42 мс.
Размер потока : 126 Мбайт (6%)
Язык : English
ServiceKind/String : Complete Main
Default : Нет
Forced : Нет

Текст #1
Идентификатор : 4
Формат : UTF-8
Идентификатор кодека : S_TEXT/UTF8
Идентификатор кодека/Информация : UTF-8 Plain Text
Продолжительность : 45 м. 43 с.
Битрейт : 87 бит/сек
ElementCount : 901
Размер потока : 29,3 Кбайт (0%)
Язык : English
Default : Нет
Forced : Нет

Читать еще:  Коктейль Orange Tini Грейпфрутовый тини

Текст #2
Идентификатор : 5
Формат : UTF-8
Идентификатор кодека : S_TEXT/UTF8
Идентификатор кодека/Информация : UTF-8 Plain Text
Продолжительность : 45 м. 43 с.
Битрейт : 90 бит/сек
ElementCount : 959
Размер потока : 30,3 Кбайт (0%)
Заголовок : SDH
Язык : English
Default : Нет
Forced : Нет

Aven Colony [v 1.0.21839] (2017) [RUS][ENG][RePack] от xatab [upd.20.09.17]

Добавлено: 2017-07-27 16:38

Дата выхода: 25 июля 2017
Жанр: Strategy (Sci-fi), Simulator, 3D
Разработчик: Mothership Entertainment LLC
Издатель: Team17 Digital
Язык интерфейса: Русский, Английский и другие
Язык озвучки: Не озвучена
Версия: 1.0.21839
Тип издания: Repack
Таблетка: Вшита (ALI213)

Системные требования:
Операционная система: Windows 7+
Процессор: Intel Core i3-3220 3.3 ГГц
Оперативная память: 4 Гб
Видеокарта: GeForce GTX 470 или AMD Radeon HD 7850
Дополнительное программное обеспечение: DirectX 11
Место на диске: 11 Гб

Описание:
Постройте новый дом для человечества в колонии Эйвен. Откройте для себя Эйвен Прайм — чужую планету, где есть пустыни, тундра и джунгли, расположенную на расстоянии многих световых лет от Земли. Колония Эйвен ставит вас во главе первого поселения людей, находящегося за пределами Солнечной системы , где вам предстоит построить маленькие колонии в обширные крупные города, сталкиваясь с проблемами переселения в новый мир. Создайте инфраструктуру колонии, следите за благополучием граждан, управляйте ресурсами, приведите колонию к процветанию на фоне суровых и зачастую опасных реалий экзотического мира Эйвен Прайм.

Hearts of Iron IV: Field Marshal Edition [v 1.4.2 + DLC's] [RUS][ENG][RePack] от xatab [upd.20.09.17]

Добавлено: 2016-12-25 20:36

Год выпуска: 2016 г.
Жанр: Strategy (Real-time, Grand strategy), 3D
Разработчик: Paradox Development Studios
Издатель: Paradox Interactive
Платформа: PC
Тип издания: Repack
Язык интерфейса: Русский Английский |MULTi7
Язык озвучки: Английский
Таблэтка: Вшита (CODEX)

Системные требования:
Операционная система: Windows 7 и выше (только 64 бита);
Процессор: Intel Core 2 Quad Q9400 @ 2.66 GHz / AMD Athlon II X4 650 @ 3.20 GHz;
Оперативная память: 4 Гб;
Видеокарта: ATI Radeon HD 5850 / NVIDIA GeForce GTX470 with 1GB VRAM;
Звуковая карта: DirectX® 9.0с
Свободное место на жестком диске: 1.6 гб

Описание:
Сюжет игры посвящен событиям Второй мировой войны. Через изометрическую перспективу и стратегическую мировую карту геймеры любым способом пытаются привести выбранное государство к стопроцентной победе; управляют войсками (авиацией, флотом, бронетехникой, пехотой), ведут дипломатические беседы и осуществляют разнообразные боевые задачи. Глобальная стратегическая война. Страны воюют не только с помощью оружия, но и в исследовательских лабораториях, на предприятиях, в политике, коммерции, медицине, даже в умах каждого человека. Пожалуй это самый реалистический симулятор войны современности. Выбирайте любую державу, чтобы сразиться в самом кровавом противостоянии за всю историю. Возьмите на себя роль мирового лидера, и боритесь за всемирную власть, или станьте главой обычной маленькой нации, и постарайтесь попросту выжить.

Сердцеедки / Heartbreakers (Дэвид Миркин) [2001, мелодрама, комедия, криминал, HDRip-AVC] [Dub R5]+[Sub Rus, Eng]x2

Добавлено: 2017-09-20 20:48

Информация о фильме
Название : Сердцеедки
Оригинальное название : Heartbreakers
Год выхода : 2001
Жанр : мелодрама, комедия, криминал
Режиссер : Дэвид Миркин
В ролях : Сигурни Уивер, Дженнифер Лав Хьюитт, Джин Хэкмен, Рэй Лиотта, Джейсон Ли, Энн Бэнкрофт, Джеффри Джонс, Нора Данн, Хулио Оскар Мечосо, Рикки Джей

Читать еще:  Коктейль Irish Brothers Ирландские братья

О фильме :
Очаровательная интриганка Макс Коннерс и ее прилежная ученица (она же — дочь) Пейдж — отличная команда. Некоторые матери учат своих дочерей музыке, танцам и этикету, а Макс передала Пейдж все, что узнала сама за многие годы об авантюрах, мошенничестве и обольщении. Отсутствие капитала, по их мнению, — лишь временное явление, легко поправимое при помощи мужчин. Ничего не подозревающие, хорошо обеспеченные жертвы быстро попадаются в коварные сети прекрасных обманщиц. Результат — легкая и беззаботная жизнь на деньги очередного одураченного простофили, лишившегося значительной части своих средств. И все было бы хорошо, но однажды Пейдж совершила роковую ошибку влюбившись на самом деле. Ведь женское сердце не спрашивая свою хозяйку, всегда ищет настоящую любовь. Много лет назад такую же ошибку совершила и Макс.

Выпущено : США, Davis Entertainment, Metro-Goldwyn-Mayer
Продолжительность : 02:03:29
Перевод : Профессиональный (полное дублирование) R5

Файл
Формат: MKV
Качество: HDRip-AVC
Видео : MPEG-4 AVC, 752×324,

771 Кбит/с
Аудио : AAC-LC, 2 ch,

72 Кбит/с
Субтитры : русские, английские

Общее
Уникальный идентификатор : 207725482057316473553809941489859879495 (0x9C4678FD02E40001ADE0215C3896E247)
Полное имя : D:MOVIESHeartbreakers.2001.ExKinoRay.mkv
Формат : Matroska
Версия формата : Version 4 / Version 2
Размер файла : 746 Мбайт
Продолжительность : 2 ч. 3 м.
Общий поток : 845 Кбит/сек
Дата кодирования : UTC 2017-09-19 18:51:23
Программа кодирования : mkvmerge v15.0.0 (‘Duel with the Devil’) 64-bit
Библиотека кодирования : libebml v1.3.5 + libmatroska v1.4.5

Видео
Идентификатор : 1
Формат : AVC
Формат/Информация : Advanced Video Codec
Профиль формата : High@L4.1
Параметр CABAC формата : Да
Параметр RefFrames формата : 10 кадров
Идентификатор кодека : V_MPEG4/ISO/AVC
Продолжительность : 2 ч. 3 м.
Битрейт : 771 Кбит/сек
Ширина : 752 пикселя
Высота : 324 пикселя
Соотношение сторон : 2,35:1
Режим частоты кадров : Постоянный
Частота кадров : 23,976 (24000/1001) кадра/сек
Цветовое пространство : YUV
Субдискретизация насыщенности : 4:2:0
Битовая глубина : 8 бит
Тип развёртки : Прогрессивная
Бит/(Пиксели*Кадры) : 0.132
Размер потока : 681 Мбайт (91%)
Библиотека кодирования : x264 core 152 r2851kMod ba24899
Настройки программы : cabac=1 / ref=10 / deblock=1:-3:-3 / analyse=0x3:0x113 / me=umh / subme=11 / psy=1 / fade_compensate=0.00 / psy_rd=1.00:0.10 / mixed_ref=1 / me_range=32 / chroma_me=1 / trellis=2 / 8x8dct=1 / cqm=0 / deadzone=21,11 / fast_pskip=0 / chroma_qp_offset=-3 / threads=6 / lookahead_threads=1 / sliced_threads=0 / nr=0 / decimate=0 / interlaced=0 / bluray_compat=0 / constrained_intra=0 / bframes=10 / b_pyramid=2 / b_adapt=2 / b_bias=0 / direct=3 / weightb=1 / open_gop=0 / weightp=2 / keyint=240 / keyint_min=23 / scenecut=40 / intra_refresh=0 / rc_lookahead=40 / rc=2pass / mbtree=1 / bitrate=771 / ratetol=1.0 / qcomp=0.60 / qpmin=0 / qpmax=69 / qpstep=4 / cplxblur=20.0 / qblur=0.5 / vbv_maxrate=50000 / vbv_bufsize=62500 / nal_hrd=none / filler=0 / ip_ratio=1.40 / aq=3:1.00
Default : Да
Forced : Нет

Аудио
Идентификатор : 2
Формат : AAC
Формат/Информация : Advanced Audio Codec
Профиль формата : LC
Идентификатор кодека : A_AAC
Продолжительность : 2 ч. 3 м.
Битрейт : 72,0 Кбит/сек
Каналы : 2 канала
Расположение каналов : Front: L R
Частота : 48,0 КГц
Частота кадров : 46,875 кадров/сек (1024 SPF)
Метод сжатия : С потерями
Задержка видео : 9 мс.
Размер потока : 63,6 Мбайт (9%)
Default : Да
Forced : Нет

Текст #1
Идентификатор : 3
Формат : UTF-8
Идентификатор кодека : S_TEXT/UTF8
Идентификатор кодека/Информация : UTF-8 Plain Text
Продолжительность : 1 ч. 57 м.
Битрейт : 91 бит/сек
ElementCount : 1247
Размер потока : 78,6 Кбайт (0%)
Язык : Russian
Default : Нет
Forced : Нет

Текст #2
Идентификатор : 4
Формат : UTF-8
Идентификатор кодека : S_TEXT/UTF8
Идентификатор кодека/Информация : UTF-8 Plain Text
Продолжительность : 1 ч. 57 м.
Битрейт : 59 бит/сек
ElementCount : 1910
Размер потока : 51,3 Кбайт (0%)
Язык : English
Default : Нет
Forced : Нет

голоса
Рейтинг статьи
Ссылка на основную публикацию
ВсеИнструменты
Adblock
detector